Coldplay - The Scientist | Kabuki Bu Subtitle Indonesia | Devour (Devoured #1)

12 Monkeys S04E06 Die Glocke 1080p 5.1 - 2.0 x264 Phun Psyz

seeders: 12
leechers: 2
updated:
Added by PhunPsyz in Other


strongly advises you to use NordVPN while downloading torrents.
NordVPN is the safest VPN on the market, and the fastest VPN as well.
No IP Log is saved using NordVPN, avoid other VPN providers and choose the safest one.
Click here and buy NordVPN it's on rebates today!
We were able to verify your IP: 176.99.4.10 and country: Russian Federation.
If we can do that, others can too, protect your privacy with NordVPN.
is trying the best for you!


Description

www.imdb.com/title/tt7103416/?ref_=ttep_ep6 

The team infiltrates a Nazi gala to steal an artifact as "Die Glocke"; their operation comes undone when French Resistance interferes and an unexpected guest arrives.

Source: NTG (Amzn) (2.92 GiB)

 

Format : MPEG-4
Format profile : Base Media / Version 2
Codec ID : mp42 (isom/iso2/avc1/mp41)
File size : 735 MiB
Duration : 43 min 10 s
Overall bit rate mode : Variable
Overall bit rate : 2 381 kb/s

Video
ID : 1
Format : AVC
Format/Info : Advanced Video Codec
Format profile : [email protected] 
Format settings : CABAC / 8 Ref Frames
Format settings, CABAC : Yes
Format settings, RefFrames : 8 frames
Codec ID : avc1
Codec ID/Info : Advanced Video Coding
Duration : 43 min 10 s
Bit rate : 1 893 kb/s
Width : 1 920 pixels
Height : 1 080 pixels
Display aspect ratio : 16:9
Frame rate mode : Variable
Frame rate : 23.976 (24000/1001) FPS
Minimum frame rate : 23.974 FPS
Maximum frame rate : 23.981 FPS
Color space : YUV
Chroma subsampling : 4:2:0
Bit depth : 8 bits
Scan type : Progressive
Bits/(Pixel*Frame) : 0.038
Stream size : 585 MiB (80%)
Writing library : x264 core 155 r2893 b00bcaf

Audio #1
ID : 2
Format : AC-3
Format/Info : Audio Coding 3
Format settings, Endianness : Big
Codec ID : ac-3
Duration : 43 min 10 s
Bit rate mode : Constant
Bit rate : 320 kb/s
Channel(s) : 6 channels
Channel positions : Front: L C R, Side: L R, LFE
Sampling rate : 48.0 kHz
Frame rate : 31.250 FPS (1536 SPF)
Bit depth : 16 bits
Compression mode : Lossy
Stream size : 98.8 MiB (13%)
Title : Surround / Surround
Language : English
Service kind : Complete Main

Audio #2
ID : 3
Format : AAC
Format/Info : Advanced Audio Codec
Format profile : LC
Codec ID : mp4a-40-2
Duration : 43 min 10 s
Bit rate mode : Variable
Bit rate : 160 kb/s
Channel(s) : 2 channels
Channel positions : Front: L R
Sampling rate : 48.0 kHz
Frame rate : 46.875 FPS (1024 SPF)
Compression mode : Lossy
Stream size : 49.5 MiB (7%)
Title : Stereo / Stereo
Language : English

Text
Language : English
Default : Yes
Forced : No

Sharing Widget


Download torrent
Size: 735.1 MB
seeders:12
leechers:2
12 Monkeys S04E06 Die Glocke 1080p 5.1 - 2.0 x264 Phun Psyz - (770808217 Bytes)



To share this torrent use the code below and insert it into comments, status messages, forum posts or your signature.

Torrent: 12 Monkeys S04E06 Die Glocke 1080p 5.1 - 2.0 x264 Phun Psyz

Trackers

tracker name
udp://tracker.opentrackr.org:1337/announce
udp://public.popcorn-tracker.org:6969/announce
udp://tracker.leechers-paradise.org:6969/announce
udp://tracker.pirateparty.gr:6969/announce
udp://tracker.internetwarriors.net:1337/announce
udp://inferno.demonoid.pw:3391/announce
http://mgtracker.org:6969/announce
udp://tracker.coppersurfer.tk:6969/announce
udp://tracker.torrent.eu.org:451/announce
udp://tracker.tiny-vps.com:6969/announce
udp://tracker.zer0day.to:1337/announce
udp://tracker.leechers-paradise.org:6969/announce
udp://coppersurfer.tk:6969/announce
ĀµTorrent compatible trackers list

Locations

name
KickassTorrents
Torrent hash: 71D6AF1A846A11377E558B87DE688BE21C17A01B

strongly advises you to use NordVPN while downloading torrents.
NordVPN is the safest VPN on the market, and the fastest VPN as well.
No IP Log is saved using NordVPN, avoid other VPN providers and choose the safest one.
Click here and buy NordVPN it's on rebates today!
We were able to verify your IP: 176.99.4.10 and country: Russian Federation.
If we can do that, others can too, protect your privacy with NordVPN.
is trying the best for you!

All Comments

*comments box temporarily disabled*
Report a bug