4 K linuxmint-18 3-cinnamon-64bit iso | Season 2 Episode 1 And the Hidden Stash | Accused Saison 1 VoirFilms

Central Intelligence (2016) BluRay 720p Dual Audio [Hindi - Eng] ...

seeders: 14
leechers: 4
updated:
Added by Katyayan in Other


strongly advises you to use NordVPN while downloading torrents.
NordVPN is the safest VPN on the market, and the fastest VPN as well.
No IP Log is saved using NordVPN, avoid other VPN providers and choose the safest one.
Click here and buy NordVPN it's on rebates today!
We were able to verify your IP: 176.99.4.10 and country: Russian Federation.
If we can do that, others can too, protect your privacy with NordVPN.
is trying the best for you!


Description

 
Central Intelligence (2016) BluRay 720p Dual Audio [Hindi - Eng] DD5.1 x264 AAC Esub -=!Katyayan!=-
  

 
 
 

Code: 
Format                                   : Matroska
Format version                           : Version 4 / Version 2
File size                                : 1 018 MiB
Duration                                 : 1 h 47 min
Overall bit rate                         : 1 323 kb/s
Movie name                               : Central Intelligence (2016) BluRay 720p Dual Audio [Hindi - Eng] DD5.1 x264 AAC Esub -=!Katyayan!=-
Encoded date                             : UTC 2018-06-13 17:04:30
Writing application                      : mkvmerge v19.0.0 ('Brave Captain') 32-bit
Writing library                          : libebml v1.3.5 + libmatroska v1.4.8
Cover                                    : Yes
Attachments                              : Central Intelligence (2016) Cover.

Video
ID                                       : 1
Format                                   : AVC
Format/Info                              : Advanced Video Codec
Format profile                           : [email protected] 
Format settings                          : CABAC / 12 Ref Frames
Format settings, CABAC                   : Yes
Format settings, RefFrames               : 12 frames
Codec ID                                 : V_MPEG4/ISO/AVC
Duration                                 : 1 h 47 min
Bit rate                                 : 1 000 kb/s
Width                                    : 1 280 pixels
Height                                   : 536 pixels
Display aspect ratio                     : 2.40:1
Original display aspect ratio            : 2.40:1
Frame rate mode                          : Constant
Frame rate                               : 23.976 (24000/1001) FPS
Color space                              : YUV
Chroma subsampling                       : 4:2:0
Bit depth                                : 8 bits
Scan type                                : Progressive
Bits/(Pixel*Frame)                       : 0.061
Stream size                              : 770 MiB (76%)
Title                                    : Central Intelligence (2016) BluRay 720p Dual Audio [Hindi - Eng] DD5.1 x264 AAC Esub -=!Katyayan!=-
Writing library                          : x264 core 146 r2538 121396c
Language                                 : English
Default                                  : Yes
Forced                                   : No
Color range                              : Limited
Color primaries                          : Generic film
Transfer characteristics                 : BT.709
Matrix coefficients                      : BT.709

Audio #1
ID                                       : 2
Format                                   : AAC
Format/Info                              : Advanced Audio Codec
Format profile                           : LC
Codec ID                                 : A_AAC-2
Duration                                 : 1 h 47 min
Bit rate                                 : 192 kb/s
Channel(s)                               : 6 channels
Channel positions                        : Front: L C R, Side: L R, LFE
Sampling rate                            : 48.0 kHz
Frame rate                               : 46.875 FPS (1024 SPF)
Compression mode                         : Lossy
Stream size                              : 147 MiB (14%)
Title                                    : -=!Katyayan!=-
Language                                 : Hindi
Default                                  : Yes
Forced                                   : Yes

Audio #2
ID                                       : 3
Format                                   : AAC
Format/Info                              : Advanced Audio Codec
Format profile                           : LC
Codec ID                                 : A_AAC-2
Duration                                 : 1 h 47 min
Bit rate                                 : 128 kb/s
Channel(s)                               : 6 channels
Channel positions                        : Front: L C R, Side: L R, LFE
Sampling rate                            : 48.0 kHz
Frame rate                               : 46.875 FPS (1024 SPF)
Compression mode                         : Lossy
Stream size                              : 98.5 MiB (10%)
Title                                    : -=!Katyayan!=-
Language                                 : English
Default                                  : No
Forced                                   : No

Text
ID                                       : 4
Format                                   : UTF-8
Codec ID                                 : S_TEXT/UTF8
Codec ID/Info                            : UTF-8 Plain Text
Duration                                 : 1 h 47 min
Bit rate                                 : 93 b/s
Count of elements                        : 2374
Stream size                              : 73.5 KiB (0%)
Title                                    : -=!Katyayan!=-
Language                                 : English
Default                                  : Yes
Forced                                   : Yes

Menu
00:00:00.000                             : en:00:00:00.000
00:09:12.051                             : en:00:09:12.051
00:20:11.751                             : en:00:20:11.751
00:30:31.078                             : en:00:30:31.078
00:43:21.764                             : en:00:43:21.764
00:52:42.492                             : en:00:52:42.492
00:58:09.860                             : en:00:58:09.860
01:10:12.457                             : en:01:10:12.457
01:18:36.752                             : en:01:18:36.752
01:28:56.287                             : en:01:28:56.287
01:39:32.256                             : en:01:39:32.256
  


 
                          
 

Sharing Widget


Download torrent
Size: 1.018.6 MB
seeders:14
leechers:4
Central Intelligence (2016) BluRay 720p Dual Audio [Hindi - Eng] ... - (1067450 Bytes)



To share this torrent use the code below and insert it into comments, status messages, forum posts or your signature.

Torrent: Central Intelligence (2016) BluRay 720p Dual Audio [Hindi - Eng] ...

Trackers

tracker name
http://tracker.dler.org:6969/announce
http://5.79.83.193:2710/announce
http://tracker.mg64.net:6881/announce
udp://open.stealth.si:80/announce
udp://tracker.coppersurfer.tk:6969/announce
udp://182.176.139.129:6969/announce
udp://tracker.leechers-paradise.org:6969/announce
udp://shadowshq.yi.org:6969/announce
udp://5.79.83.193:6969/announce
udp://tracker.tiny-vps.com:6969/announce
udp://public.popcorn-tracker.org:6969/announce
udp://eddie4.nl:6969/announce
udp://tracker.zer0day.to:1337/announce
udp://tracker.leechers-paradise.org:6969/announce
udp://coppersurfer.tk:6969/announce
ĀµTorrent compatible trackers list

Locations

name
KickassTorrents
Torrent hash: C37D922D34DDEBE83887EB4469680CD28A2CD1D5

strongly advises you to use NordVPN while downloading torrents.
NordVPN is the safest VPN on the market, and the fastest VPN as well.
No IP Log is saved using NordVPN, avoid other VPN providers and choose the safest one.
Click here and buy NordVPN it's on rebates today!
We were able to verify your IP: 176.99.4.10 and country: Russian Federation.
If we can do that, others can too, protect your privacy with NordVPN.
is trying the best for you!

All Comments

*comments box temporarily disabled*
Report a bug