Read More.. | Impulse-S01E09 mp4 19 минут | HARDCORE LESBIANS LOVERS

Formula 1 2018 French Grand Prix HDTV x264 720

seeders: 156
leechers: 5
updated:
Added by HackRF in Other


strongly advises you to use NordVPN while downloading torrents.
NordVPN is the safest VPN on the market, and the fastest VPN as well.
No IP Log is saved using NordVPN, avoid other VPN providers and choose the safest one.
Click here and buy NordVPN it's on rebates today!
We were able to verify your IP: 176.99.4.11 and country: Russian Federation.
If we can do that, others can too, protect your privacy with NordVPN.
is trying the best for you!


Formula 1 2018 French Grand Prix HDTV x264 720 Size: 2.6 GB (2791728742 Bytes)

Description

Formula 1  2018



French Grand Prix
Circuit Paul Ricard - Le Castellet, France
Sun, Jun 24 10: 10a ET (ESP2)
SkySports

 
 


General
Complete name                            : Formula 1 2018 French Grand Prix HDTV x264 720.mkv
Format                                   : Matroska
Format version                           : Version 4 / Version 2
File size                                : 2.63 GiB
Duration                                 : 1 h 45 min
Overall bit rate                         : 3 556 kb/s
Encoded date                             : UTC 2018-06-24 16:42:27
Writing application                      : mkvmerge v15.0.0 ('Duel with the Devil') 64-bit
Writing library                          : libebml v1.3.5 + libmatroska v1.4.5

Video
ID                                       : 1
Format                                   : AVC
Format/Info                              : Advanced Video Codec
Format profile                           : [email protected] 
Format settings, CABAC                   : Yes
Format settings, RefFrames               : 5 frames
Codec ID                                 : V_MPEG4/ISO/AVC
Duration                                 : 1 h 45 min
Bit rate                                 : 3 168 kb/s
Width                                    : 1 280 pixels
Height                                   : 720 pixels
Display aspect ratio                     : 16:9
Frame rate mode                          : Constant
Frame rate                               : 59.940 (60000/1001) FPS
Color space                              : YUV
Chroma subsampling                       : 4:2:0
Bit depth                                : 8 bits
Scan type                                : Progressive
Bits/(Pixel*Frame)                       : 0.057
Stream size                              : 2.34 GiB (89%)
Writing library                          : x264 core 152 r2851 ba24899
Default                                  : Yes
Forced                                   : No

Audio
ID                                       : 2
Format                                   : AC-3
Format/Info                              : Audio Coding 3
Format settings, Endianness              : Big
Codec ID                                 : A_AC3
Duration                                 : 1 h 45 min
Bit rate mode                            : Constant
Bit rate                                 : 384 kb/s
Channel(s)                               : 6 channels
Channel positions                        : Front: L C R, Side: L R, LFE
Sampling rate                            : 48.0 kHz
Frame rate                               : 31.250 FPS (1536 SPF)
Bit depth                                : 16 bits
Compression mode                         : Lossy
Stream size                              : 291 MiB (11%)
Language                                 : new
Service kind                             : Complete Main
Default                                  : Yes
Forced                                   : No

Sharing Widget


Download torrent
Size: 2.6 GB
seeders:156
leechers:5
Formula 1 2018 French Grand Prix HDTV x264 720 - (2791728742 Bytes)



To share this torrent use the code below and insert it into comments, status messages, forum posts or your signature.

Torrent: Formula 1 2018 French Grand Prix HDTV x264 720

Trackers

tracker name
udp://tracker.coppersurfer.tk:6969/announce
udp://tracker.trackerfix.com:80/announce
udp://9.rarbg.me:2710/announce
http://tracker.opentrackr.org:1337/announce
udp://inferno.demonoid.pw:3393/announce
udp://tracker.ilibr.org:6969/announce
udp://tracker.leechers-paradise.org:6969/announce
udp://tracker.zer0day.to:1337/announce
udp://eddie4.nl:6969/announce
udp://inferno.demonoid.pw:3391/announce
udp://tracker.leechers-paradise.org:6969
udp://tracker.zer0day.to:1337/announce
udp://tracker.leechers-paradise.org:6969/announce
udp://coppersurfer.tk:6969/announce
µTorrent compatible trackers list

Locations

name
KickassTorrents
Torrent hash: 146460DCDE93450E1473C186B080B91E63D6E828

strongly advises you to use NordVPN while downloading torrents.
NordVPN is the safest VPN on the market, and the fastest VPN as well.
No IP Log is saved using NordVPN, avoid other VPN providers and choose the safest one.
Click here and buy NordVPN it's on rebates today!
We were able to verify your IP: 176.99.4.11 and country: Russian Federation.
If we can do that, others can too, protect your privacy with NordVPN.
is trying the best for you!

All Comments

*comments box temporarily disabled*
Report a bug