Ushio To Tora ... | Download All Innjoo Stock Roms | Fairy Tail Komik

Mr. Fraud (2014) UnCut 720p HDRip x264 ESubs [Dual Audio]-[Hindi ...

seeders: 50
leechers: 27
updated:
Added by ictv in Other


strongly advises you to use NordVPN while downloading torrents.
NordVPN is the safest VPN on the market, and the fastest VPN as well.
No IP Log is saved using NordVPN, avoid other VPN providers and choose the safest one.
Click here and buy NordVPN it's on rebates today!
We were able to verify your IP: 176.99.4.10 and country: Russian Federation.
If we can do that, others can too, protect your privacy with NordVPN.
is trying the best for you!


Description

Visit Our Site www.movcr.com 

[b]Khatron Se Khelenge

Mr.Fraud Is Malayalam Action Thriller Now Available In Uncut HDRip By www.MovCr.com  

Mr. Fraud (2014) UnCut 720p HDRip x264 ESubs [Dual Audio]-[Hindi DD2.0 - Malayalam] [MovCr Exclusive][/b]

http://www.imdb.com/title/tt3605606/  

 

General
Unique ID                   : 101190567948699848854664099131233685903 (0x4C209830826A4F6227FF2857816C518F)
Complete name               : [www.MovCr.com] - Mr. Fraud (2014) UnCut 720p HDRip x264 ESubs [Dual Audio]-[Hindi DD2.0 - Tamil] [MovCr Exclusive]\www.MovCr.com - Mr. Fraud (2014) UnCut 720p HDRip x264 ESubs [Dual Audio]-[Hindi DD2.0 - Tamil]-1.6GB [MovCr Exclusive].mkv
Format                      : Matroska
Format version              : Version 4 / Version 2
File size                   : 1.63 GiB
Duration                    : 2 h 15 min
Overall bit rate            : 1 718 kb/s
Movie name                  : www.MovCr.com
Encoded date                : UTC 2018-06-23 17:50:33
Writing application         : mkvmerge v23.0.0 ('The Bride Said No') 64-bit
Writing library             : libebml v1.3.6 + libmatroska v1.4.9

Video
ID                          : 1
Format                      : AVC
Format/Info                 : Advanced Video Codec
Format profile              : High [email protected] 
Format settings, CABAC      : Yes
Format settings, ReFrames   : 5 frames
Codec ID                    : V_MPEG4/ISO/AVC
Duration                    : 2 h 15 min
Bit rate                    : 1 332 kb/s
Width                       : 1 280 pixels
Height                      : 544 pixels
Display aspect ratio        : 2.35:1
Frame rate mode             : Constant
Frame rate                  : 23.976 (24000/1001) FPS
Color space                 : YUV
Chroma subsampling          : 4:2:0
Bit depth                   : 10 bits
Scan type                   : Progressive
Bits/(Pixel*Frame)          : 0.080
Stream size                 : 1.27 GiB (78%)
Title                       : www.MovCr.com
Writing library             : x264 core 138 r2358 9e941d1
Encoding settings           : cabac=1 / ref=5 / deblock=1:-2:-1 / analyse=0x3:0x113 / me=umh / subme=5 / psy=1 / psy_rd=1.00:0.00 / mixed_ref=1 / me_range=16 / chroma_me=1 / trellis=1 / 8x8dct=1 / cqm=0 / deadzone=21,11 / fast_pskip=1 / chroma_qp_offset=0 / threads=12 / lookahead_threads=3 / sliced_threads=0 / nr=0 / decimate=1 / interlaced=0 / bluray_compat=0 / constrained_intra=0 / bframes=16 / b_pyramid=2 / b_adapt=1 / b_bias=0 / direct=3 / weightb=1 / open_gop=0 / weightp=2 / keyint=240 / keyint_min=23 / scenecut=40 / intra_refresh=0 / rc_lookahead=40 / rc=2pass / mbtree=1 / bitrate=1332 / ratetol=1.0 / qcomp=0.60 / qpmin=10 / qpmax=51 / qpstep=4 / cplxblur=20.0 / qblur=0.5 / vbv_maxrate=168750 / vbv_bufsize=168750 / nal_hrd=none / ip_ratio=1.40 / aq=2:1.00
Default                     : Yes
Forced                      : No

Audio #1
ID                          : 2
Format                      : AAC
Format/Info                 : Advanced Audio Codec
Format profile              : HE-AAC / LC
Codec ID                    : A_AAC
Duration                    : 2 h 15 min
Bit rate                    : 192 kb/s
Channel(s)                  : 6 channels
Channel positions           : Front: L C R, Side: L R, LFE
Sampling rate               : 48.0 kHz / 24.0 kHz
Frame rate                  : 23.438 FPS (1024 spf)
Compression mode            : Lossy
Delay relative to video     : -125 ms
Stream size                 : 187 MiB (11%)
Title                       : www.MovCr.com
Language                    : Malayalam
Default                     : No
Forced                      : No

Audio #2
ID                          : 4
Format                      : AAC
Format/Info                 : Advanced Audio Codec
Format profile              : LC
Codec ID                    : A_AAC
Duration                    : 2 h 15 min
Bit rate                    : 192 kb/s
Channel(s)                  : 2 channels
Channel positions           : Front: L R
Sampling rate               : 48.0 kHz
Frame rate                  : 46.875 FPS (1024 spf)
Compression mode            : Lossy
Delay relative to video     : -125 ms
Stream size                 : 186 MiB (11%)
Title                       : www.MovCr.com
Language                    : Hindi
Default                     : Yes
Forced                      : No

Text
ID                          : 3
Format                      : UTF-8
Codec ID                    : S_TEXT/UTF8
Codec ID/Info               : UTF-8 Plain Text
Duration                    : 2 h 13 min
Bit rate                    : 47 b/s
Count of elements           : 1377
Stream size                 : 46.1 KiB (0%)
Title                       : www.MovCr.com
Language                    : English
Default                     : Yes
Forced                      : No

  

                    

Sharing Widget


Download torrent
Size: 1.6 GB
seeders:50
leechers:27
Mr. Fraud (2014) UnCut 720p HDRip x264 ESubs [Dual Audio]-[Hindi ... - (1717986918 Bytes)



To share this torrent use the code below and insert it into comments, status messages, forum posts or your signature.

Torrent: Mr. Fraud (2014) UnCut 720p HDRip x264 ESubs [Dual Audio]-[Hindi ...

Trackers

tracker name
http://tracker.flashtorrents.org:6969/announce
http://tracker.opentrackr.org:1337/announce
udp://tracker.piratepublic.com:1337/announce
udp://tracker.openbittorrent.com:80/announce
udp://tracker.coppersurfer.tk:6969/announce
udp://zer0day.ch:1337/announce
udp://tracker.leechers-paradise.org:6969/announce
udp://9.rarbg.com:2750/announce
http://share.camoe.cn:8080/announce
udp://tracker.torrent.eu.org:451/announce
http://t.nyaatracker.com:80/announce
udp://tracker.doko.moe:6969/announce
http://tracker.kicks-ass.net:80/announce
udp://thetracker.org:80/announce
udp://tracker.zer0day.to:1337/announce
udp://tracker.leechers-paradise.org:6969/announce
udp://coppersurfer.tk:6969/announce
ĀµTorrent compatible trackers list

Locations

name
KickassTorrents
Torrent hash: 9351E966D287AAADD85D17667CEF3C0F0C18BC10

strongly advises you to use NordVPN while downloading torrents.
NordVPN is the safest VPN on the market, and the fastest VPN as well.
No IP Log is saved using NordVPN, avoid other VPN providers and choose the safest one.
Click here and buy NordVPN it's on rebates today!
We were able to verify your IP: 176.99.4.10 and country: Russian Federation.
If we can do that, others can too, protect your privacy with NordVPN.
is trying the best for you!

All Comments

*comments box temporarily disabled*
Report a bug