Oscar Jaenada | The Sims 4: Deluxe Edition [v 1.20.60.1020] Repack-xatab | Fred Tatasciore

The Magnificent Seven 2016 Esub 720p BluRay 5.1 Dual Audio Englis...

seeders: 6
leechers: 0
updated:
Added by PENDUDESI in Other


strongly advises you to use NordVPN while downloading torrents.
NordVPN is the safest VPN on the market, and the fastest VPN as well.
No IP Log is saved using NordVPN, avoid other VPN providers and choose the safest one.
Click here and buy NordVPN it's on rebates today!
We were able to verify your IP: 176.99.4.10 and country: Russian Federation.
If we can do that, others can too, protect your privacy with NordVPN.
is trying the best for you!


Description

http://www.gopisahi.pw 

 
Format : Matroska
Format version : Version 4 / Version 2
File size : 646 MiB
Duration : 2 h 12 min
Overall bit rate : 680 kb/s
Movie name : The Magnificent Seven 2016 GOPISAHI

Video
Format : HEVC
Duration : 2 h 12 min
Bit rate : 501 kb/s
Width : 1 280 pixels
Height : 536 pixels
Display aspect ratio : 2.40:1
Frame rate mode : Constant
Frame rate : 23.976 (24000/1001) FPS
Color space  : YUV
Chroma subsampling : 4:2:0
Bit depth : 8 bits
Bits/(Pixel*Frame) : 0.030
Stream size : 476 MiB (74%)
Title : GOPISAHI
Writing library : x265 2.6:[Windows][GCC 7.2.0][64 bit] 8bit+10bit+12bit

Audio #1
Format : AAC
Duration : 2 h 12 min
Bit rate : 87.5 kb/s
Channel(s) : 6 channels
Channel positions : Front: L C R, Side: L R, LFE
Sampling rate : 44.1 kHz
Frame rate : 43.066 FPS (1024 SPF)
Compression mode : Lossy
Stream size : 83.1 MiB (13%)
Title : GOPISAHI
Language : English

Audio #2
Format : AAC
Duration : 2 h 12 min
Bit rate : 88.5 kb/s
Channel(s) : 6 channels
Channel positions : Front: L C R, Side: L R, LFE
Sampling rate : 44.1 kHz
Frame rate : 43.066 FPS (1024 SPF)
Compression mode : Lossy
Stream size : 84.0 MiB (13%)
Title : GOPISAHI
Language : Hindi

Text
Language : English
 
 

Sharing Widget


Download torrent
Size: 646.1 MB
seeders:6
leechers:0
The Magnificent Seven 2016 Esub 720p BluRay 5.1 Dual Audio Englis... - (677484953 Bytes)



To share this torrent use the code below and insert it into comments, status messages, forum posts or your signature.

Torrent: The Magnificent Seven 2016 Esub 720p BluRay 5.1 Dual Audio Englis...

Trackers

tracker name
udp://9.rarbg.com:2740/announce
udp://9.rarbg.to:2800/announce
udp://inferno.demonoid.pw:3391/announce
udp://tracker.leechers-paradise.org:6969/announce
udp://tracker.coppersurfer.tk:80/announce
udp://tracker.coppersurfer.tk:6969/announce
udp://tracker.opentrackr.org:1337/announce
udp://p4p.arenabg.com:1337/announce
UDP://EDDIE4.NL:6969/ANNOUNCE
udp://tracker.pirateparty.gr:6969/announce
udp://tracker.tiny-vps.com:6969/announce
udp://public.popcorn-tracker.org:6969/announce
udp://tracker.torrent.eu.org:451/announce
udp://tracker.zer0day.to:1337/announce
udp://tracker.leechers-paradise.org:6969/announce
udp://coppersurfer.tk:6969/announce
ĀµTorrent compatible trackers list

Locations

name
KickassTorrents
Torrent hash: AF5CB8480B37A25B980FA364BFB9A9664B175FDF

strongly advises you to use NordVPN while downloading torrents.
NordVPN is the safest VPN on the market, and the fastest VPN as well.
No IP Log is saved using NordVPN, avoid other VPN providers and choose the safest one.
Click here and buy NordVPN it's on rebates today!
We were able to verify your IP: 176.99.4.10 and country: Russian Federation.
If we can do that, others can too, protect your privacy with NordVPN.
is trying the best for you!

All Comments

*comments box temporarily disabled*
Report a bug