Season 1 Episode 3 IRL | Internet Download Manager 6.30.2 RePack Full mới 15/12/2017 - Bản quyền vĩnh viễn | The Colony 2015 Mo

The Monkey King 2 2016 720p Esub BluRay 5.1 Dual Audio Chi Hindi...

seeders: 4
leechers: 3
updated:
Added by PENDUDESI in Other


strongly advises you to use NordVPN while downloading torrents.
NordVPN is the safest VPN on the market, and the fastest VPN as well.
No IP Log is saved using NordVPN, avoid other VPN providers and choose the safest one.
Click here and buy NordVPN it's on rebates today!
We were able to verify your IP: 176.99.4.11 and country: Russian Federation.
If we can do that, others can too, protect your privacy with NordVPN.
is trying the best for you!


Description

http://www.gopisahi.pw 

 
Format : Matroska
Format version : Version 4 / Version 2
File size : 580 MiB
Duration : 1 h 59 min
Overall bit rate : 681 kb/s
Movie name : The Monkey King 2 2016 GOPISAHI

Video
Format : HEVC
Codec ID : V_MPEGH/ISO/HEVC
Duration : 1 h 59 min
Bit rate : 499 kb/s
Width : 1 280 pixels
Height : 544 pixels
Display aspect ratio : 2.35:1
Frame rate mode : Constant
Frame rate : 23.976 (24000/1001) FPS
Color space : YUV
Chroma subsampling : 4:2:0
Bit depth : 8 bits
Bits/(Pixel*Frame) : 0.030
Stream size : 425 MiB (73%)
Title : GOPISAHI
Writing library : x265 2.6:[Windows][GCC 7.2.0][64 bit] 8bit+10bit+12bit

Audio #1
Format : AAC
Duration : 1 h 59 min
Bit rate : 89.6 kb/s
Channel(s) : 6 channels
Channel positions : Front: L C R, Side: L R, LFE
Sampling rate : 44.1 kHz
Frame rate : 43.066 FPS (1024 SPF)
Compression mode : Lossy
Stream size : 76.3 MiB (13%)
Title : GOPISAHI
Language : Hindi

Audio #2
Format : AAC
Duration : 1 h 59 min
Bit rate : 89.4 kb/s
Channel(s) : 6 channels
Channel positions : Front: L C R, Side: L R, LFE
Sampling rate : 44.1 kHz
Frame rate : 43.066 FPS (1024 SPF)
Compression mode : Lossy
Stream size : 76.1 MiB (13%)
Title : GOPISAHI
Language : Chinese

Text
Language : English
 
 

Sharing Widget


Download torrent
Size: 579.8 MB
seeders:4
leechers:3
The Monkey King 2 2016 720p Esub BluRay 5.1 Dual Audio Chi Hindi... - (607964364 Bytes)



To share this torrent use the code below and insert it into comments, status messages, forum posts or your signature.

Torrent: The Monkey King 2 2016 720p Esub BluRay 5.1 Dual Audio Chi Hindi...

Trackers

tracker name
udp://9.rarbg.com:2740/announce
udp://9.rarbg.to:2800/announce
udp://inferno.demonoid.pw:3391/announce
udp://tracker.leechers-paradise.org:6969/announce
udp://tracker.coppersurfer.tk:80/announce
udp://tracker.coppersurfer.tk:6969/announce
udp://tracker.opentrackr.org:1337/announce
udp://p4p.arenabg.com:1337/announce
UDP://EDDIE4.NL:6969/ANNOUNCE
udp://tracker.pirateparty.gr:6969/announce
udp://tracker.tiny-vps.com:6969/announce
udp://public.popcorn-tracker.org:6969/announce
udp://tracker.torrent.eu.org:451/announce
udp://tracker.zer0day.to:1337/announce
udp://tracker.leechers-paradise.org:6969/announce
udp://coppersurfer.tk:6969/announce
µTorrent compatible trackers list

Locations

name
KickassTorrents
Torrent hash: F0115E1EF226C1C69B5E229632ADD230E9BB011A

strongly advises you to use NordVPN while downloading torrents.
NordVPN is the safest VPN on the market, and the fastest VPN as well.
No IP Log is saved using NordVPN, avoid other VPN providers and choose the safest one.
Click here and buy NordVPN it's on rebates today!
We were able to verify your IP: 176.99.4.11 and country: Russian Federation.
If we can do that, others can too, protect your privacy with NordVPN.
is trying the best for you!

All Comments

*comments box temporarily disabled*
Report a bug