Watch movie | Hal Holbrook | Michael Rapaport

The.Strangers.Prey.at.Night.2018.iTALiAN.Subbed.HDRiP.XViD.NeWZoN...

seeders: 11
leechers: 6
updated:
Added by s7en07 in Other


strongly advises you to use NordVPN while downloading torrents.
NordVPN is the safest VPN on the market, and the fastest VPN as well.
No IP Log is saved using NordVPN, avoid other VPN providers and choose the safest one.
Click here and buy NordVPN it's on rebates today!
We were able to verify your IP: 176.99.4.10 and country: Russian Federation.
If we can do that, others can too, protect your privacy with NordVPN.
is trying the best for you!


Description

The Strangers 2: Prey at Night (2018) HDRip [Sub-iTA]  



Strangers: Prey At Night  

 


 

Anno : 2018
Nazione : USA
Regia : Johannes Roberts
Durata : 85 min
Cast : Christina Hendricks, Martin Henderson, Bailee Madison, Lewis Pullman, Emma Bellomy. 
Distribuzione : Notorious Pictures
Data uscita in Italia : giovedì 31 maggio 2018
Genere : Horror
Altri dettagli su : MYmovies.it  

 

Cindy e suo marito Mike decidono di fare un viaggio in roulotte con i loro due figli adolescenti, la ribelle Kinsey e Luke. Quella che inizia come una comune gita familiare si trasforma presto nel loro peggior incubo all'arrivo in un camping abbandonato. Nel buio della notte, tre psicopatici mascherati, con inspiegabili intenti omicidi, faranno loro visita per spingerli oltre il limite umano.


The Strangers: Prey at Night Trailer #1 [HD]  

 

 
The.Strangers.Prey.at.Night.2018.iTALiAN.Subbed.HDRiP.XViD.NeWZoNe.avi

HDRip | AVI | 720x304 | [email protected] 182 kb/s | 1 h 25 min | 810 MiB 
English [email protected] kb/s | 2 channels | Subtitles: Italian (forced, full)
  

 

 
 
 
 

 

General
Complete name : E:\The.Strangers.Prey.at.Night.2018.iTALiAN.Subbed.HDRiP.XViD.NeWZoNe.avi
Format : AVI
Format/Info : Audio Video Interleave
File size : 810 MiB
Duration : 1 h 25 min
Overall bit rate : 1 323 kb/s
Writing application : Lavf54.29.104

Video
ID : 1
Format : xvid
Codec ID : xvid
Duration : 1 h 25 min
Bit rate : 1 182 kb/s
Width : 720 pixels
Height : 304 pixels
Display aspect ratio : 2.35:1
Frame rate : 23.976 (24000/1001) FPS
Scan type : Progressive
Bits/(Pixel*Frame) : 0.225
Stream size : 724 MiB (89%)

Audio
ID : 2
Format : MPEG Audio
Format version : Version 1
Format profile : Layer 3
Mode : Joint stereo
Codec ID : 55
Codec ID/Hint : MP3
Duration : 1 h 25 min
Bit rate mode : Constant
Bit rate : 128 kb/s
Channel(s) : 2 channels
Sampling rate : 48.0 kHz
Compression mode : Lossy
Stream size : 78.4 MiB (10%)
Alignment : Aligned on interleaves
Interleave, duration : 24 ms (0.58 video frame)

Text #1
ID : 3
Format : UTF-8
Codec ID : S_TEXT/UTF8
Codec ID/Info : UTF-8 Plain Text
Duration : 1 h 25 min
Bit rate : 0 b/s
Count of elements : 3
Stream size : 117 Bytes (0%)
Title : Forced
Language : Italian
Default : Yes
Forced : No

Text #2
ID : 4
Format : UTF-8
Codec ID : S_TEXT/UTF8
Codec ID/Info : UTF-8 Plain Text
Duration : 1 h 25 min
Bit rate : 56 b/s
Count of elements : 1125
Stream size : 38.5 KiB (0%)
Language : Italian
Default : No
Forced : No

Sharing Widget


Download torrent
Size: 810.1 MB
seeders:11
leechers:6
The.Strangers.Prey.at.Night.2018.iTALiAN.Subbed.HDRiP.XViD.NeWZoN... - (849451417 Bytes)



To share this torrent use the code below and insert it into comments, status messages, forum posts or your signature.

Torrent: The.Strangers.Prey.at.Night.2018.iTALiAN.Subbed.HDRiP.XViD.NeWZoN...

Trackers

tracker name
http://torrentsurf.net/announce.php
udp://tracker.zer0day.to:1337/announce
udp://tracker.leechers-paradise.org:6969/announce
udp://coppersurfer.tk:6969/announce
µTorrent compatible trackers list

Locations

name
KickassTorrents
Torrent hash: B3B30643007F5B6EB21FCAC0B48AF01FBE590346

strongly advises you to use NordVPN while downloading torrents.
NordVPN is the safest VPN on the market, and the fastest VPN as well.
No IP Log is saved using NordVPN, avoid other VPN providers and choose the safest one.
Click here and buy NordVPN it's on rebates today!
We were able to verify your IP: 176.99.4.10 and country: Russian Federation.
If we can do that, others can too, protect your privacy with NordVPN.
is trying the best for you!

All Comments

*comments box temporarily disabled*
Report a bug